<?xml version="1.0" standalone="no"?>
<!DOCTYPE svg PUBLIC "-//W3C//DTD SVG 1.1//EN" "http://www.w3.org/Graphics/SVG/1.1/DTD/svg11.dtd" >
<svg xmlns="http://www.w3.org/2000/svg">
<metadata>Generated by IcoMoon</metadata>
<defs>
<font id="gotoicon" horiz-adv-x="1024">
<font-face units-per-em="1024" ascent="960" descent="-64" />
<missing-glyph horiz-adv-x="1024" />
<glyph unicode="&#x20;" horiz-adv-x="512" d="" />
<glyph unicode="&#xe900;" glyph-name="calendar" d="M32.056-47.082c-17.809 0-32.056 14.247-32.056 31.165v815.638c0 17.809 14.247 32.056 32.056 32.056h191.443v78.358c0 17.809 14.247 32.056 32.056 32.056s32.056-14.247 32.056-32.056v-78.358h455.903v78.358c0 17.809 14.247 32.056 32.056 32.056s32.056-14.247 32.056-32.056v-78.358h185.21c17.809 0 32.056-14.247 32.056-32.056v-814.748c0-17.809-14.247-32.056-32.056-32.056 0 0-960.779 0-960.779 0zM961.67 664.376v103.29h-154.045v-125.551c0-17.809-14.247-32.056-32.056-32.056s-32.056 14.247-32.056 32.056v125.551h-455.903v-125.551c0-17.809-14.247-32.056-32.056-32.056s-32.056 14.247-32.056 32.056v125.551h-159.388v-751.527h896.668v584.125l0.89 64.111z" />
<glyph unicode="&#xe901;" glyph-name="calendar-2" d="M28.672-23.040c-15.77 0-28.672 12.902-28.672 28.672v802.406c0 15.77 12.902 28.672 28.672 28.672h214.016v53.658c0 15.77 12.902 28.672 28.672 28.672s28.672-12.902 28.672-28.672v-53.658h423.936v53.658c0 15.77 12.902 28.672 28.672 28.672s28.672-12.902 28.672-28.672v-53.658h214.016c15.77 0 28.672-12.902 28.672-28.672v-802.406c0-15.77-12.902-28.672-28.672-28.672h-966.656zM57.344 34.304h909.312v745.062h-185.344v-53.658c0-15.77-12.902-28.672-28.672-28.672s-28.672 12.902-28.672 28.672v53.658h-423.936v-53.658c0-15.77-12.902-28.672-28.672-28.672s-28.672 12.902-28.672 28.672v53.658h-185.344v-745.062zM407.552 370.176c-23.757 0-43.008 19.251-43.008 43.008s19.251 43.008 43.008 43.008 43.008-19.251 43.008-43.008-19.251-43.008-43.008-43.008zM636.928 370.176c-23.757 0-43.008 19.251-43.008 43.008s19.251 43.008 43.008 43.008 43.008-19.251 43.008-43.008-19.251-43.008-43.008-43.008z" />
<glyph unicode="&#xe902;" glyph-name="calendar-3" d="M984 839.674h-196.978v40.326c0 22.092-17.908 40-40 40s-40-17.908-40-40v-40.326h-390.044v40.326c0 22.092-17.908 40-40 40s-40-17.908-40-40v-40.326h-196.978c-22.092 0-40-17.91-40-40v-783.674c0-22.090 17.908-40 40-40h944c22.092 0 40 17.91 40 40v783.674c0 22.090-17.908 40-40 40zM944 56h-864v703.674h156.978v-40.328c0-22.092 17.908-40 40-40s40 17.908 40 40v40.328h390.042v-40.328c0-22.092 17.908-40 40-40s40 17.908 40 40v40.328h156.98v-703.674zM566 490.1c0-29.823-24.177-54-54-54s-54 24.177-54 54c0 29.823 24.177 54 54 54s54-24.177 54-54zM566 255.080c0-29.823-24.177-54-54-54s-54 24.177-54 54c0 29.823 24.177 54 54 54s54-24.177 54-54zM330.98 490.1c0-29.823-24.177-54-54-54s-54 24.177-54 54c0 29.823 24.177 54 54 54s54-24.177 54-54zM801.020 490.1c0-29.823-24.177-54-54-54s-54 24.177-54 54c0 29.823 24.177 54 54 54s54-24.177 54-54zM330.98 255.080c0-29.823-24.177-54-54-54s-54 24.177-54 54c0 29.823 24.177 54 54 54s54-24.177 54-54zM801.020 255.080c0-29.823-24.177-54-54-54s-54 24.177-54 54c0 29.823 24.177 54 54 54s54-24.177 54-54z" />
<glyph unicode="&#xe903;" glyph-name="call" d="M809.283 325.668c-20.964 21.828-46.25 33.499-73.049 33.499-26.583 0-52.085-11.454-73.914-33.283l-68.295-68.078c-5.619 3.026-11.238 5.835-16.641 8.645-7.78 3.89-15.129 7.564-21.396 11.454-63.972 40.631-122.109 93.581-177.869 162.092-27.015 34.147-45.17 62.892-58.353 92.068 17.722 16.209 34.147 33.067 50.14 49.276 6.051 6.051 12.103 12.319 18.154 18.37 45.386 45.386 45.386 104.171 0 149.557l-59.001 59.001c-6.7 6.7-13.616 13.616-20.099 20.532-12.967 13.4-26.583 27.231-40.631 40.199-20.964 20.748-46.034 31.77-72.401 31.77s-51.869-11.022-73.482-31.77c-0.216-0.216-0.216-0.216-0.432-0.432l-73.482-74.13c-27.664-27.664-43.441-61.379-46.899-100.497-5.187-63.108 13.4-121.893 27.664-160.363 35.012-94.445 87.313-181.975 165.333-275.772 94.662-113.032 208.558-202.29 338.664-265.182 49.708-23.557 116.058-51.437 190.188-56.192 4.539-0.216 9.293-0.432 13.616-0.432 49.924 0 91.852 17.938 124.703 53.598 0.216 0.432 0.648 0.648 0.864 1.081 11.238 13.616 24.206 25.935 37.821 39.118 9.293 8.861 18.803 18.154 28.096 27.88 21.396 22.261 32.634 48.195 32.634 74.778 0 26.799-11.454 52.518-33.283 74.13l-118.651 119.083zM886.654 98.092c-0.216 0-0.216-0.216 0 0-8.429-9.077-17.074-17.29-26.367-26.367-14.048-13.4-28.312-27.448-41.712-43.224-21.828-23.341-47.547-34.363-81.262-34.363-3.242 0-6.7 0-9.942 0.216-64.188 4.106-123.838 29.176-168.575 50.573-122.325 59.217-229.738 143.289-318.996 249.837-73.698 88.826-122.974 170.953-155.608 259.131-20.099 53.814-27.448 95.742-24.206 135.293 2.161 25.286 11.887 46.25 29.825 64.188l73.698 73.698c10.59 9.942 21.828 15.345 32.851 15.345 13.616 0 24.638-8.213 31.554-15.129 0.216-0.216 0.432-0.432 0.648-0.648 13.183-12.319 25.719-25.070 38.902-38.686 6.7-6.916 13.616-13.832 20.532-20.964l59.001-59.001c22.909-22.909 22.909-44.089 0-66.998-6.268-6.268-12.319-12.535-18.587-18.587-18.154-18.587-35.444-35.876-54.247-52.734-0.432-0.432-0.864-0.648-1.081-1.081-18.587-18.587-15.129-36.741-11.238-49.060 0.216-0.648 0.432-1.297 0.648-1.945 15.345-37.173 36.957-72.185 69.807-113.896l0.216-0.216c59.65-73.482 122.541-130.754 191.917-174.627 8.861-5.619 17.938-10.158 26.583-14.48 7.78-3.89 15.129-7.564 21.396-11.454 0.864-0.432 1.729-1.081 2.593-1.513 7.348-3.674 14.264-5.403 21.396-5.403 17.938 0 29.176 11.238 32.851 14.912l73.914 73.914c7.348 7.348 19.019 16.209 32.634 16.209 13.4 0 24.422-8.429 31.122-15.777 0.216-0.216 0.216-0.216 0.432-0.432l119.083-119.083c22.261-22.044 22.261-44.737 0.216-67.646zM553.394 716.417c56.624-9.509 108.061-36.309 149.124-77.372s67.646-92.5 77.372-149.124c2.377-14.264 14.696-24.206 28.744-24.206 1.729 0 3.242 0.216 4.971 0.432 15.993 2.593 26.583 17.722 23.99 33.715-11.671 68.511-44.089 130.97-93.581 180.462s-111.951 81.91-180.462 93.581c-15.993 2.593-30.905-7.997-33.715-23.773s7.564-31.122 23.557-33.715zM1022.811 508.292c-19.235 112.816-72.401 215.474-154.095 297.168s-184.352 134.86-297.168 154.095c-15.777 2.81-30.689-7.997-33.499-23.773-2.593-15.993 7.997-30.905 23.99-33.715 100.713-17.074 192.565-64.837 265.614-137.67 73.049-73.049 120.596-164.901 137.67-265.614 2.377-14.264 14.696-24.206 28.744-24.206 1.729 0 3.242 0.216 4.971 0.432 15.777 2.377 26.583 17.506 23.773 33.283z" />
<glyph unicode="&#xe904;" glyph-name="camera" d="M905.641 43.47h-787.3c-65.264 0-118.341 53.077-118.341 118.341v479.933c0 65.264 53.077 118.341 118.341 118.341h160.649l14.062 47.436c5.739 25.957 29.468 45.009 57.377 45.009h323.148c27.12 0 51.122-18.954 57.475-45.245l0.374-1.617 12.819-45.58h161.416c65.264 0 118.341-53.077 118.341-118.341v-479.93c-0.018-65.27-53.114-118.347-118.359-118.347zM118.341 720.637c-43.511 0-78.893-35.385-78.893-78.893v-479.93c0-43.511 35.385-78.893 78.893-78.893h787.3c43.511 0 78.893 35.385 78.893 78.893v479.93c0 43.511-35.385 78.893-78.893 78.893h-191.277l-21.596 77.021c-1.992 8.955-10.060 15.443-19.211 15.443h-323.151c-9.29 0-17.18-6.35-19.211-15.464l-22.799-76.999h-190.055zM512.021 162.701c-138.043 0-250.35 112.286-250.35 250.31 0 138.043 112.304 250.329 250.35 250.329 138.006 0 250.292-112.304 250.292-250.329-0.003-138.006-112.289-250.31-250.292-250.31zM512.021 623.913c-116.291 0-210.902-94.593-210.902-210.884s94.615-210.862 210.902-210.862c116.269 0 210.844 94.593 210.844 210.862-0.003 116.291-94.596 210.884-210.844 210.884zM880.178 647.424c-20.117 0-36.391-16.311-36.391-36.391 0-20.098 16.271-36.388 36.391-36.388 20.098 0 36.37 16.293 36.37 36.388-0.018 20.080-16.293 36.391-36.37 36.391z" />
<glyph unicode="&#xe905;" glyph-name="clock" d="M511.789-64.632c-123.259 0-238.512 47.407-324.688 133.584s-133.584 201.64-133.584 324.688 47.407 238.512 133.584 324.688c86.176 86.176 201.429 133.584 324.688 133.584s238.512-47.407 324.688-133.584c86.176-86.176 133.584-201.429 133.584-324.688s-47.407-238.301-133.584-324.477c-86.176-86.176-201.64-133.794-324.688-133.794zM511.789 795.022c-225.027 0-401.383-176.356-401.383-401.383s176.356-401.383 401.383-401.383 401.383 176.356 401.383 401.383-176.356 401.383-401.383 401.383zM483.345 354.028v282.97h30.13v-273.699l204.379-122.627-14.749-22.123-219.76 135.48zM10.535 783.012l208.171 171.931 36.662-42.351-208.171-171.931-36.662 42.351zM767.789 917.649l36.872 42.351 208.593-176.777-36.872-42.351-208.593 176.777z" />
<glyph unicode="&#xe906;" glyph-name="email" d="M0 828.135v-760.271h1024v760.271h-1024zM512 412.297l-381.685 343.556h763.369l-381.685-343.556zM364.289 448l-292.006-262.838v525.676l292.006-262.838zM418.312 399.373l93.688-84.329 93.688 84.329 287.997-259.226h-763.369l287.997 259.226zM659.711 448l292.006 262.838v-525.676l-292.006 262.838z" />
<glyph unicode="&#xe907;" glyph-name="grid" d="M393.849 881.237h-315.075c-21.339 0-39.798-7.8-55.388-23.395-15.59-15.571-23.386-34.047-23.386-55.375v-236.311c0-21.332 7.796-39.798 23.386-55.379 15.588-15.597 34.047-23.395 55.388-23.395h315.075c21.339 0 39.798 7.805 55.388 23.395 15.59 15.582 23.386 34.047 23.386 55.379v236.311c0 21.328-7.796 39.798-23.386 55.377-15.59 15.599-34.056 23.393-55.388 23.393zM393.849 408.616h-315.075c-21.339 0-39.798-7.805-55.388-23.391s-23.386-34.049-23.386-55.379v-236.311c0-21.332 7.796-39.804 23.386-55.381 15.588-15.592 34.047-23.391 55.388-23.391h315.075c21.339 0 39.798 7.796 55.388 23.391 15.59 15.579 23.386 34.049 23.386 55.381v236.311c0 21.33-7.796 39.793-23.386 55.379-15.59 15.599-34.056 23.391-55.388 23.391zM1000.609 857.842c-15.573 15.601-34.049 23.395-55.381 23.395h-315.081c-21.33 0-39.795-7.8-55.379-23.395-15.592-15.571-23.391-34.049-23.391-55.377v-236.311c0-21.332 7.796-39.798 23.391-55.379 15.584-15.597 34.049-23.395 55.379-23.395h315.081c21.332 0 39.811 7.805 55.381 23.395 15.592 15.582 23.391 34.047 23.391 55.379v236.313c0 21.328-7.792 39.791-23.391 55.375zM945.228 408.616h-315.081c-21.33 0-39.795-7.805-55.379-23.391-15.592-15.586-23.391-34.049-23.391-55.379v-236.311c0-21.332 7.796-39.804 23.391-55.381 15.584-15.592 34.049-23.391 55.379-23.391h315.081c21.332 0 39.811 7.796 55.381 23.391 15.592 15.579 23.391 34.049 23.391 55.381v236.311c0 21.33-7.79 39.793-23.391 55.379-15.573 15.599-34.034 23.391-55.381 23.391z" />
<glyph unicode="&#xe908;" glyph-name="group" d="M1021.941 68.655l-40.592 141.107c-0.966 2.899-2.899 5.799-4.832 7.732-25.129 76.352-86.984 135.308-165.269 155.604l-11.598 1.933c-17.397 4.832-36.726-0.966-49.291-15.464-42.525-48.324-96.649-52.19-153.671-52.19s-111.146 3.866-153.671 52.19c-12.564 14.497-31.894 20.296-49.291 15.464l-11.598-2.899c-58.956-15.464-109.213-53.157-141.107-103.414h-121.777c-0.966 0-0.966 0-1.933 0.966 0 0.966-0.966 1.933-0.966 3.866l25.129 89.883c22.229 70.554 64.755 91.816 147.872 113.079 3.866 0.966 6.765 2.899 8.698 4.832 6.765-5.799 14.497-10.631 22.229-14.497 2.899-1.933 5.799-1.933 8.698-1.933 6.765 0 13.531 3.866 17.397 10.631 4.832 9.665 0.966 21.263-8.698 26.095-44.458 23.196-76.352 88.917-76.352 156.571 0 59.922 49.291 109.213 109.213 109.213 11.598 0 22.229-1.933 32.861-4.832-10.631-26.095-16.43-54.123-16.43-84.084 0-165.269 99.548-304.443 217.46-304.443 115.978 0 218.426 142.074 218.426 304.443 0 120.811-97.615 218.426-218.426 218.426-76.352 0-144.007-39.626-182.666-99.548-16.43 5.799-33.827 8.698-51.224 8.698-52.19 0-98.582-28.028-124.677-69.587-1.933 1.933-3.866 2.899-5.799 3.866-14.497 7.732-28.995 10.631-45.425 10.631-54.123 0.966-97.615-42.525-97.615-96.649 0-30.928 8.698-59.922 22.229-83.118-44.458-11.598-84.084-28.995-102.448-87.95l-15.464-56.056c-2.899-9.665-0.966-20.296 4.832-28.028 5.799-8.698 16.43-13.531 27.062-13.531h74.419c-0.966-3.866-2.899-7.732-3.866-11.598l-25.129-90.85c-3.866-12.564-0.966-26.095 7.732-36.726 7.732-10.631 19.33-16.43 32.861-16.43h102.448c-2.899-6.765-4.832-13.531-6.765-20.296l-40.592-142.074c-3.866-16.43-0.966-33.827 9.665-47.358s26.095-21.263 42.525-21.263h743.228c16.43 0 32.861 7.732 42.525 21.263 10.631 13.531 14.497 30.928 9.665 48.324zM444.949 759.693c0.966 0.966 1.933 1.933 2.899 3.866 0.966 0.966 0.966 2.899 1.933 3.866 29.961 54.123 87.95 90.85 154.638 90.85 80.218 0 147.872-53.157 171.068-125.643-33.827-6.765-69.587 6.765-90.85 35.76-6.765 8.698-18.363 10.631-27.062 3.866-3.866-2.899-5.799-5.799-6.765-9.665-0.966-0.966-0.966-1.933-1.933-2.899-27.062-55.090-117.911-78.285-221.325-57.989 2.899 20.296 8.698 39.626 17.397 57.989zM499.072 656.279c77.319 0 141.107 24.162 173.968 69.587 24.162-21.263 54.123-32.861 86.017-32.861 7.732 0 16.43 0.966 24.162 2.899 0.966-5.799 0.966-10.631 0.966-16.43 0-142.074-84.084-266.75-179.767-266.75-91.816 0-172.035 115.012-178.8 250.32 25.129-4.832 50.257-6.765 73.453-6.765zM40.957 424.322l13.531 48.324c11.598 39.626 35.76 51.224 84.084 62.822 2.899 0.966 5.799 1.933 7.732 3.866 4.832-3.866 8.698-6.765 14.497-9.665 2.899-1.933 5.799-1.933 8.698-1.933 6.765 0 13.531 3.866 17.397 10.631 4.832 9.665 0.966 21.263-7.732 26.095-25.129 13.531-43.492 51.224-43.492 89.883 0 32.861 26.095 58.956 58.956 58.956 10.631 0 19.33-1.933 28.028-6.765 2.899-0.966 4.832-1.933 7.732-1.933-4.832-14.497-7.732-29.961-7.732-46.391 0-55.090 18.363-109.213 47.358-146.906-57.989-14.497-109.213-33.827-143.040-86.984h-86.017zM982.315 43.526c-1.933-1.933-5.799-5.799-12.564-5.799h-743.228c-6.765 0-10.631 3.866-12.564 5.799-2.899 3.866-3.866 9.665-2.899 13.531l40.592 141.107c19.33 66.688 72.487 118.878 140.141 136.275l11.598 2.899c2.899 0.966 7.732-0.966 10.631-3.866 53.157-60.889 118.878-65.721 182.666-65.721s129.509 4.832 182.666 65.721c2.899 2.899 6.765 4.832 11.598 3.866l11.598-2.899c66.688-17.397 120.811-69.587 140.141-136.275l17.397-59.922c0.966-2.899 1.933-4.832 3.866-6.765l21.263-73.453c0.966-4.832 0-10.631-2.899-14.497z" />
<glyph unicode="&#xe909;" glyph-name="heart" d="M748 898c-116.428 0-194.964-59-236-100.808-41.036 41.808-119.572 100.808-236 100.808-161.912 0-276-143.714-276-313.334 0-262.306 260.994-462.69 493.722-582.246 11.472-5.894 25.084-5.894 36.556 0 232.848 119.616 493.722 319.804 493.722 582.246 0 169.32-113.83 313.334-276 313.334zM512 83.102c-196.27 103.706-432 280.934-432 501.564 0 121.49 76.070 233.334 196 233.334 94.614 0 169.536-55.764 202.44-104.764 7.3-11.5 19.846-18.334 33.472-18.4 13.702-0.048 26.306 7.008 33.708 18.49 0.674 1.048 69.024 104.674 202.38 104.674 119.956 0 196-111.89 196-233.334 0-220.492-236.144-398.076-432-501.564z" />
<glyph unicode="&#xe90a;" glyph-name="home" d="M618.375-42.422c-12.682 0-23.092 10.41-23.092 23.092v274.455h-166.187v-274.455c0-12.682-10.41-23.092-23.092-23.092h-255.338c-12.682 0-23.092 10.41-23.092 23.092v425.121c0 12.682 10.41 23.092 23.092 23.092s23.092-10.41 23.092-23.092v-402.029h208.775v274.455c0 12.682 10.41 23.092 23.092 23.092h212.56c12.682 0 23.092-10.41 23.092-23.092v-274.455h208.775v380.83c0 12.682 10.41 23.092 23.092 23.092s23.092-10.41 23.092-23.092v-403.922c0-12.682-10.41-23.092-23.092-23.092h-254.77zM1000.908 403.898c-6.246 0-11.925 2.461-16.278 6.814l-472.63 472.63-472.441-472.63c-4.353-4.353-10.221-6.814-16.278-6.814s-11.925 2.461-16.278 6.814-7.003 10.221-7.003 16.467 2.461 11.925 6.814 16.278l488.908 488.908c4.353 4.353 10.221 6.814 16.278 6.814 6.246 0 11.925-2.461 16.278-6.814l488.908-488.908c9.085-9.085 9.085-23.66 0-32.745-4.164-4.353-10.032-6.814-16.278-6.814zM830.935 701.634c-12.682 0-23.092 10.41-23.092 23.092v125.681h-125.681c-12.682 0-23.092 10.41-23.092 23.092s10.41 23.092 23.092 23.092h148.773c12.682 0 23.092-10.41 23.092-23.092v-148.773c0-12.871-10.41-23.092-23.092-23.092zM873.523-40.529h-255.148c-11.735 0-21.199 9.464-21.199 21.199v276.348h-169.973v-276.348c0-11.735-9.464-21.199-21.199-21.199h-255.338c-11.735 0-21.199 9.464-21.199 21.199v425.121c0 11.735 9.464 21.199 21.199 21.199s21.199-9.464 21.199-21.199v-403.922h212.56v276.348c0 11.735 9.464 21.199 21.199 21.199h212.56c11.735 0 21.199-9.464 21.199-21.199v-276.348h212.56v382.722c0 11.735 9.464 21.199 21.199 21.199s21.199-9.464 21.199-21.199v-403.922c0.379-11.735-9.085-21.199-20.821-21.199zM1000.908 405.791c-5.489 0-10.789 2.082-14.953 6.246l-473.955 473.955-473.766-473.955c-8.328-8.328-21.767-8.328-30.095 0s-8.328 21.767 0 30.095l488.908 488.908c8.328 8.328 21.767 8.328 30.095 0l488.908-488.908c8.328-8.328 8.328-21.767 0-30.095-4.164-4.164-9.653-6.246-15.142-6.246zM830.935 703.527c-11.735 0-21.199 9.464-21.199 21.199v127.574h-127.574c-11.735 0-21.199 9.464-21.199 21.199s9.464 21.199 21.199 21.199h148.773c11.735 0 21.199-9.464 21.199-21.199v-148.773c0-11.735-9.464-21.199-21.199-21.199z" />
<glyph unicode="&#xe90b;" glyph-name="info" d="M512-64c-282.331 0-512 229.669-512 512s229.669 512 512 512 512-229.669 512-512-229.669-512-512-512zM512 830.433c-210.86 0-382.433-171.572-382.433-382.433s171.572-382.433 382.433-382.433 382.433 171.572 382.433 382.433-171.572 382.433-382.433 382.433zM565.081 627.304c0-33.586-27.227-60.813-60.813-60.813s-60.813 27.227-60.813 60.813c0 33.586 27.227 60.813 60.813 60.813s60.813-27.227 60.813-60.813zM595.801 207.882h-167.602v81.293h30.72v138.344h-30.302v81.293h136.464v-219.638h30.72z" />
<glyph unicode="&#xe90c;" glyph-name="list" d="M109.716 557.708c-30.482 0-56.383-10.662-77.721-31.997-21.328-21.328-31.995-47.228-31.995-77.711 0-30.468 10.668-56.385 32.003-77.717 21.336-21.328 47.243-31.991 77.721-31.991 30.472 0 56.375 10.664 77.713 31.991 21.33 21.33 31.997 47.247 31.997 77.717 0 30.482-10.668 56.383-32.003 77.713-21.332 21.328-47.237 31.995-77.715 31.995zM109.722 850.286c-30.482 0-56.383-10.668-77.721-31.997-21.328-21.336-31.995-47.237-31.995-77.713 0-30.48 10.662-56.383 31.995-77.719 21.336-21.33 47.243-31.993 77.721-31.993 30.472 0 56.375 10.666 77.713 31.993 21.33 21.336 31.997 47.241 31.997 77.719 0 30.476-10.668 56.377-31.997 77.713-21.328 21.33-47.231 31.997-77.713 31.997zM109.722 265.132c-30.482 0-56.391-10.658-77.721-31.985-21.328-21.342-31.995-47.247-31.995-77.713 0-30.492 10.662-56.383 31.995-77.725 21.336-21.33 47.243-31.993 77.721-31.993 30.472 0 56.375 10.664 77.713 31.993 21.33 21.342 31.997 47.233 31.997 77.725 0 30.468-10.668 56.385-31.997 77.713-21.328 21.328-47.231 31.985-77.713 31.985zM1018.578 808.289c-3.629 3.609-7.904 5.42-12.863 5.42h-694.862c-4.95 0-9.237-1.805-12.855-5.42-3.617-3.627-5.428-7.904-5.428-12.855v-109.722c0-4.954 1.811-9.229 5.428-12.857 3.621-3.613 7.908-5.42 12.855-5.42h694.862c4.96 0 9.239 1.801 12.863 5.42 3.623 3.627 5.424 7.904 5.424 12.857v109.72c-0.002 4.952-1.809 9.237-5.424 12.857zM1005.715 521.137h-694.862c-4.95 0-9.237-1.801-12.855-5.428-3.617-3.617-5.428-7.904-5.428-12.855v-109.718c0-4.948 1.811-9.233 5.428-12.851 3.621-3.629 7.908-5.432 12.855-5.432h694.862c4.96 0 9.239 1.801 12.863 5.432 3.623 3.619 5.424 7.904 5.424 12.851v109.718c0 4.952-1.807 9.247-5.424 12.855-3.631 3.619-7.906 5.428-12.863 5.428zM1005.715 228.572h-694.862c-4.95 0-9.237-1.807-12.855-5.432-3.617-3.623-5.428-7.904-5.428-12.849v-109.718c0-4.96 1.811-9.239 5.428-12.863 3.621-3.617 7.908-5.418 12.855-5.418h694.862c4.96 0 9.239 1.801 12.863 5.418 3.623 3.625 5.424 7.904 5.424 12.863v109.718c0 4.946-1.807 9.241-5.424 12.849-3.631 3.611-7.906 5.432-12.863 5.432z" />
<glyph unicode="&#xe90d;" glyph-name="location" d="M512 909.197c-202.419 0-367.529-165.11-367.529-368.322 0-24.608 2.381-49.216 7.144-73.029 0-1.588 0.794-3.175 0.794-5.557 40.484-181.78 325.457-454.847 337.364-465.96 6.35-6.35 14.288-8.732 22.226-8.732s15.876 3.175 22.226 8.732c11.907 11.907 295.293 284.18 335.777 461.991 0 1.588 0.794 3.175 0.794 4.763 5.557 25.402 7.938 51.597 7.938 77.792 0.794 203.212-164.316 368.322-366.735 368.322zM807.293 474.989c0-1.588 0-0.794 0-2.381-30.164-131.771-227.82-339.746-295.293-407.219-67.473 67.473-265.922 275.448-296.087 410.394 0 1.588 0 2.381-0.794 3.969-3.969 20.639-6.35 41.278-6.35 61.916 0 166.698 135.74 303.231 302.437 303.231s303.231-135.74 303.231-303.231c0-23.020-2.381-45.247-7.144-66.679zM512 702.016c-68.267 0-123.039-55.566-123.039-123.039s55.566-123.039 123.039-123.039 123.039 54.772 123.039 123.039-54.772 123.039-123.039 123.039zM512 520.236c-32.546 0-58.741 26.195-58.741 58.741s26.195 58.741 58.741 58.741c32.546 0 58.741-26.195 58.741-58.741s-26.195-58.741-58.741-58.741z" />
<glyph unicode="&#xe90e;" glyph-name="mail" d="M989.276 820.222h-954.553c-19.176 0-34.724-15.548-34.724-34.724v-674.994c0-19.173 15.548-34.724 34.724-34.724h954.553c19.173 0 34.724 15.551 34.724 34.724v674.994c0 19.173-15.551 34.724-34.724 34.724zM954.553 145.225h-885.105v605.55h885.105v-605.55zM160.437 587.204l333.347-205.389c5.584-3.442 11.898-5.161 18.215-5.161s12.631 1.72 18.215 5.161l333.347 205.389c16.326 10.059 21.409 31.451 11.35 47.777s-31.457 21.409-47.777 11.348l-315.135-194.163-315.132 194.163c-16.32 10.053-37.713 4.981-47.777-11.348-10.062-16.323-4.981-37.718 11.348-47.777z" />
<glyph unicode="&#xe90f;" glyph-name="paper" d="M0.090 447.883c1.253-21.095 15.247-38.848 35.506-44.905l375.111-113.411 13.785-258.568c0.627-10.234 7.519-19.215 17.335-22.557 2.715-1.044 5.639-1.462 8.354-1.462 7.31 0 14.202 2.924 19.215 8.563l132.626 146.828 187.973-130.119c8.354-5.848 18.171-8.981 28.405-8.981 23.601 0 44.069 16.709 49.082 40.101l156.018 795.128c1.88 9.19-1.671 18.797-8.772 24.645-7.31 6.057-17.126 7.519-25.899 3.968l-958.665-390.149c-19.424-8.772-31.329-27.987-30.076-49.082zM472.112 95.12l-8.563 163.119 96.075-66.417-87.512-96.702zM817.565 75.278l-342.112 236.847 479.75 464.086-137.638-700.932zM902.571 796.678l-474.32-458.864-374.694 113.202 849.013 345.662z" />
<glyph unicode="&#xe910;" glyph-name="pdf" d="M162.561 960v-554.028h-74.395v-291.767h0.002l74.376-74.378 0.017-103.827h773.273v809.959l-214.043 214.041h-559.229zM827.127 146.206h-706.961v227.767h706.961v-227.767zM737.744 882.757l120.824-120.799h-120.824v120.799zM361.156 340.031h-71.312v-157.5h29.89v50.874h35.203l6.921 0.125c21.531 0 35.844 3.469 42.922 10.376 7.078 6.938 10.61 20.938 10.61 42.032 0 21.22-3.703 35.562-11.126 42.968-7.421 7.438-21.797 11.124-43.108 11.124zM379.563 263.25c-3.657-3.124-12.25-4.687-25.782-4.687h-34.047v56.312h37.048c12.767 0 20.672-1.595 23.702-4.781 3.047-3.187 4.562-11.437 4.562-24.749 0-11.623-1.829-18.967-5.484-22.093zM511.875 340.031h-77.437v-157.5h78.359c24.843 0 40.828 5.594 47.89 16.781s10.625 36.469 10.625 75.782c0 24.062-4.437 40.906-13.218 50.531-8.811 9.624-24.219 14.405-46.218 14.405zM534.655 217.562c-4.188-6.593-13.437-9.874-27.75-9.874h-42.578v107.188h44.423c13.922 0 22.781-3.124 26.547-9.438s5.657-21.094 5.657-44.312c-0.002-22.469-2.094-37.002-6.299-43.564zM593.126 182.531h29.874v64.75h70.625v25.157h-70.625v42.437h74.439v25.155h-104.312z" />
<glyph unicode="&#xe911;" glyph-name="pen" d="M1009.802 833.119l-91.606 91.48c-9.458 9.458-21.895 14.198-34.31 14.198-12.436 0-24.873-4.719-34.31-14.177l-73.276-73.066 160.226-159.932 73.276 73.045c18.938 18.917 18.938 49.599 0 68.453zM300.655 376.769l160.226-159.953 441.356 440.538-160.226 159.953zM266.072 342.563l-34.205-194.054 194.431 34.121zM709.001 62.063h-604.12v604.099h426.34l105.070 104.86h-568.467c-37.309 0-67.823-30.514-67.823-67.823v-678.193c0-37.288 30.514-67.802 67.823-67.802h678.214c37.267 0 67.782 30.514 67.782 67.802v484.894l-104.86-104.692 0.042-343.144z" />
<glyph unicode="&#xe912;" glyph-name="phone-book" d="M910.687 404.514c24.042 0 43.486 19.652 43.486 43.486s-19.652 43.486-43.486 43.486h-6.481v98.051h6.481c24.042 0 43.486 19.652 43.486 43.486s-19.652 43.486-43.486 43.486h-6.481v240.007c0 24.042-19.652 43.486-43.486 43.486h-747.407c-24.042 0-43.486-19.652-43.486-43.486v-937.029c0-24.042 19.652-43.486 43.486-43.486h747.407c24.042 0 43.486 19.652 43.486 41.395v243.979h6.481c24.042 0 41.395 19.652 43.486 43.486 0 24.042-19.652 43.486-43.486 43.486h-6.481v95.961h6.481v0.209zM817.026 308.554h-100.142c-24.042 0-43.486-19.652-43.486-43.486s19.652-43.486 43.486-43.486h100.142v-200.493h-660.227v854.030h660.227v-198.194h-100.142c-24.042 0-43.486-19.652-43.486-43.486s19.652-43.486 43.486-43.486h100.142v-98.051h-100.142c-24.042 0-43.486-19.652-43.486-43.486s19.652-43.486 43.486-43.486h100.142v-96.379z" />
<glyph unicode="&#xe913;" glyph-name="search" d="M1015.031-11.778l-248.848 248.848c66.753 76.743 107.168 176.873 107.168 286.311 0 240.901-195.945 436.619-436.619 436.619-240.901 0-436.619-195.945-436.619-436.619s195.945-436.619 436.619-436.619c109.439 0 209.568 40.415 286.311 107.168l248.848-248.848c5.903-5.903 13.85-9.082 21.57-9.082s15.667 2.952 21.57 9.082c11.807 11.807 11.807 31.333 0 43.14zM61.19 523.381c0 207.071 168.472 375.315 375.315 375.315 207.071 0 375.315-168.472 375.315-375.315s-168.245-375.542-375.315-375.542c-206.843 0-375.315 168.472-375.315 375.542z" />
<glyph unicode="&#xe914;" glyph-name="tag" d="M732.042 668.024c8.572-8.572 22.478-8.572 31.038 0l254.488 254.498c8.572 8.572 8.572 22.466 0 31.050-8.56 8.572-22.466 8.572-31.038 0l-254.488-254.498c-8.582-8.572-8.582-22.478 0-31.050zM951.969 475.536l-27.911 306.894-76.619-76.619c4.456-28.448-4.225-58.565-26.144-80.482-36.427-36.427-95.498-36.439-131.925 0-36.427 36.427-36.427 95.508 0 131.935 21.917 21.917 52.013 30.588 80.451 26.144l76.641 76.641-306.906 27.912c-12.072 1.086-24.014-3.228-32.597-11.809l-494.992-494.992c-15.947-15.959-15.959-41.817 0-57.764l110.105-110.116 54.329 54.329 155.214-155.214-54.317-54.317 110.105-110.105c15.959-15.959 41.805-15.959 57.752 0l495.025 494.992c8.552 8.58 12.864 20.522 11.789 32.572z" />
<glyph unicode="&#xe915;" glyph-name="tick" d="M1009.004 809.008c-19.994 19.996-52.41 19.996-72.408 0l-613.408-613.414-235.784 235.784c-19.994 19.996-52.41 19.994-72.408 0-19.996-19.994-19.996-52.41 0-72.406l271.988-271.984c19.988-19.994 52.428-19.98 72.408 0l649.612 649.612c19.996 19.994 19.994 52.412 0 72.408z" />
<glyph unicode="&#xe916;" glyph-name="unchecked" d="M0 6.499l441.501 441.501-441.501 441.501 70.499 70.499 441.501-441.501 441.501 441.501 70.499-70.499-441.501-441.501 441.501-441.501-70.499-70.499-441.501 441.501-441.501-441.501zM1015.775 889.501l-62.274 62.274-441.501-441.501-441.501 441.501-62.274-62.274 441.501-441.501-441.501-441.501 62.274-62.274 441.501 441.501 441.501-441.501 62.274 62.274-441.501 441.501z" />
<glyph unicode="&#xe917;" glyph-name="user" d="M512 331.732c-286.47 0-510.87-132.742-510.87-302.202v-52.166c0-22.846 18.52-41.364 41.364-41.364s41.364 18.518 41.364 41.364v52.166c0 118.968 196.064 219.474 428.142 219.474s428.142-100.506 428.142-219.474v-52.166c0-22.846 18.518-41.364 41.364-41.364s41.364 18.52 41.364 41.364v52.166c0 169.46-224.4 302.202-510.87 302.202zM761.586 746.642c-7.926 53.456-32.316 101.91-70.53 140.124s-86.668 62.6-140.126 70.528c-24.332 3.608-49.012 3.608-73.35 0-136.378-20.224-230.876-147.628-210.654-284.006 9.796-66.064 44.734-124.36 98.376-164.146 43.548-32.3 95.186-49.264 148.426-49.262 12.342 0 24.772 0.912 37.202 2.756 136.38 20.224 230.878 147.628 210.656 284.006zM538.798 544.47c-44.196-6.558-88.316 4.494-124.208 31.118-35.894 26.622-59.27 65.63-65.824 109.834-13.532 91.256 49.7 176.506 140.954 190.038 8.144 1.206 16.342 1.81 24.542 1.81s16.4-0.604 24.54-1.81c73.424-10.888 130.068-67.534 140.956-140.956 13.526-91.254-49.706-176.504-140.96-190.034z" />
<glyph unicode="&#xe918;" glyph-name="user-2" d="M512 960c-148.878 0-270-121.122-270-270s121.122-270 270-270 270 121.122 270 270-121.122 270-270 270zM512 480c-115.794 0-210 94.206-210 210s94.206 210 210 210c115.794 0 210-94.206 210-210s-94.206-210-210-210zM847.932 243.61c-73.92 75.056-171.914 116.39-275.932 116.39h-120c-104.016 0-202.012-41.334-275.932-116.39-73.558-74.688-114.068-173.276-114.068-277.61 0-16.568 13.432-30 30-30h840c16.568 0 30 13.432 30 30 0 104.334-40.51 202.922-114.068 277.61zM123.32-4c15.030 170.172 156.702 304 328.68 304h120c171.978 0 313.65-133.828 328.68-304h-777.36z" />
</font>
</defs>
</svg>
